<?xml version="1.0" standalone="no"?>
<!DOCTYPE svg PUBLIC "-//W3C//DTD SVG 1.1//EN" "http://www.w3.org/Graphics/SVG/1.1/DTD/svg11.dtd" >
<svg xmlns="http://www.w3.org/2000/svg">
<metadata>
Created by FontForge 20120731 at Mon Mar 27 17:10:54 2017
 By admin
</metadata>
<defs>
<font id="icon" horiz-adv-x="1024" >
  <font-face 
    font-family="icon"
    font-weight="500"
    font-stretch="normal"
    units-per-em="1024"
    panose-1="2 0 6 3 0 0 0 0 0 0"
    ascent="896"
    descent="-128"
    x-height="792"
    bbox="30 -36 994 804"
    underline-thickness="0"
    underline-position="0"
    unicode-range="U+0078-E614"
  />
<missing-glyph 
 />
    <glyph glyph-name=".notdef" 
 />
    <glyph glyph-name=".notdef" 
 />
    <glyph glyph-name=".null" horiz-adv-x="0" 
 />
    <glyph glyph-name="nonmarkingreturn" horiz-adv-x="341" 
 />
    <glyph glyph-name="x" unicode="x" horiz-adv-x="1001" 
d="M281 543q-27 -1 -53 -1h-83q-18 0 -36.5 -6t-32.5 -18.5t-23 -32t-9 -45.5v-76h912v41q0 16 -0.5 30t-0.5 18q0 13 -5 29t-17 29.5t-31.5 22.5t-49.5 9h-133v-97h-438v97zM955 310v-52q0 -23 0.5 -52t0.5 -58t-10.5 -47.5t-26 -30t-33 -16t-31.5 -4.5q-14 -1 -29.5 -0.5
t-29.5 0.5h-32l-45 128h-439l-44 -128h-29h-34q-20 0 -45 1q-25 0 -41 9.5t-25.5 23t-13.5 29.5t-4 30v167h911zM163 247q-12 0 -21 -8.5t-9 -21.5t9 -21.5t21 -8.5q13 0 22 8.5t9 21.5t-9 21.5t-22 8.5zM316 123q-8 -26 -14 -48q-5 -19 -10.5 -37t-7.5 -25t-3 -15t1 -14.5
t9.5 -10.5t21.5 -4h37h67h81h80h64h36q23 0 34 12t2 38q-5 13 -9.5 30.5t-9.5 34.5q-5 19 -11 39h-368zM336 498v228q0 11 2.5 23t10 21.5t20.5 15.5t34 6h188q31 0 51.5 -14.5t20.5 -52.5v-227h-327z" />
    <glyph glyph-name="pager" unicode="&#xe600;" 
d="M233 498h504v-54h-504v54zM233 384h504v-54h-504v54zM234 273h503v-54h-503v54zM287 724h54v-169h-54v169zM627 724h54v-169h-54v169zM367 665h232v-54h-232v54zM711 665v-54h84v-508h-621v508h90v54h-144v-616h729v616h-138z" />
    <glyph glyph-name="lock" unicode="&#xe610;" 
d="M839 -36h-654v455h107v165q0 91 64.5 155.5t155.5 64.5t155.5 -64.5t64.5 -155.5v-165h107v-455zM223 3h578v377h-578v-377zM331 419h362v165q0 75 -53 128t-128 53t-128 -53t-53 -128v-165z" />
    <glyph glyph-name="close" unicode="&#xe601;" 
d="M864 697l-39 39l-313 -313l-313 313l-39 -39l313 -313l-313 -313l39 -39l313 313l313 -313l39 39l-313 313z" />
    <glyph glyph-name="plus" unicode="&#xe602;" 
d="M866 410h-328v328h-52v-328h-328v-52h328v-328h52v328h328v52z" />
    <glyph glyph-name="minus" unicode="&#xe603;" 
d="M158 410h708v-52h-708v52z" />
    <glyph glyph-name="closed" unicode="&#xe604;" 
d="M871 384q0 98 -48 180.5t-130.5 130.5t-180.5 48t-180.5 -48t-130.5 -130.5t-48 -180.5t48 -180.5t130.5 -130.5t180.5 -48q126 0 224 78q5 4 6 11.5t-3.5 13t-12 6.5t-12.5 -4q-89 -70 -202 -70q-88 0 -162.5 43.5t-118 118t-43.5 162.5t43.5 162.5t118 118t162.5 43.5
t162.5 -43.5t118 -118t43.5 -162.5q0 -93 -49 -171q-4 -6 -2 -13t8 -11t13 -2.5t11 7.5q54 87 54 190zM521 365l-110 -112q-5 -5 -12.5 -5t-12.5 5t-5 12t5 13l110 112l-110 113q-5 5 -5 12.5t5 12.5t12.5 5t12.5 -5l110 -113l110 113q5 5 12.5 5t12.5 -5t5 -12.5t-5 -12.5
l-111 -113l111 -112q5 -6 5 -13t-5 -12t-12.5 -5t-12.5 5z" />
    <glyph glyph-name="remove" unicode="&#xe605;" 
d="M644 517q-8 0 -13.5 -5.5t-5.5 -13.5v-348q0 -8 5.5 -13.5t13.5 -5.5t13.5 5.5t5.5 13.5v348q0 8 -5.5 13.5t-13.5 5.5zM413 517q-8 0 -13.5 -5.5t-5.5 -13.5v-348q0 -8 5.5 -13.5t13.5 -5.5t13.5 5.5t5.5 13.5v348q0 8 -5.5 13.5t-13.5 5.5zM529 517q-8 0 -14 -5.5
t-6 -13.5v-348q0 -8 6 -13.5t14 -5.5t13.5 5.5t5.5 13.5v348q0 8 -5.5 13.5t-13.5 5.5zM773 558v-533h-497v538q0 8 5.5 14t13.5 6t14 -6t6 -14v-496h420v491q0 8 5.5 14t13.5 6t13.5 -6t5.5 -14zM431 685q0 8 5.5 13.5t13.5 5.5h150q8 0 13.5 -5.5t5.5 -13.5v-29h-188v29z
M856 656h-198v29q0 24 -17 41t-41 17h-150q-24 0 -40.5 -17t-16.5 -41v-29h-225q-8 0 -13.5 -5.5t-5.5 -13.5t5.5 -13.5t13.5 -5.5l688 -1q8 0 13.5 5.5t6 13.5t-5.5 13.5t-14 6.5z" />
    <glyph glyph-name="list" unicode="&#xe606;" 
d="M994 121q0 -10 -8 -17t-19 -7h-670q-11 0 -19 7t-8 17t8 17t19 7h670q11 0 19 -7t8 -17zM176 121q0 -10 -8 -17t-19 -7h-92q-11 0 -19 7t-8 17t8 17t19 7h92q11 0 19 -7t8 -17zM176 647q0 -10 -8 -17t-19 -7h-92q-11 0 -19 7t-8 17t8 17t19 7h92q11 0 19 -7t8 -17z
M985 647q0 -10 -7.5 -17t-18.5 -7h-671q-11 0 -19 7t-8 17t8 17t19 7h671q11 0 18.5 -7t7.5 -17zM991 384q0 -10 -8 -17t-19 -7h-670q-11 0 -19 7t-8 17t8 17t19 7h670q11 0 19 -7t8 -17zM176 384q0 -10 -8 -17t-19 -7h-92q-11 0 -19 7t-8 17t8 17t19 7h92q11 0 19 -7t8 -17
z" />
    <glyph glyph-name="success" unicode="&#xe607;" 
d="M513.5 44q92.5 0 170.5 45.5t123.5 123.5t45.5 170t-45.5 170.5t-123.5 123.5t-170.5 45t-170.5 -45t-123.5 -123.5t-45.5 -170.5t45.5 -170t123.5 -123.5t170.5 -45.5zM367 398l77 -73l214 205l45 -44l-259 -249l-122 117z" />
    <glyph glyph-name="weixin" unicode="&#xe611;" 
d="M645 519q11 0 24 -1q-16 74 -86.5 123t-160.5 49q-101 0 -172.5 -60.5t-71.5 -147.5q0 -97 97 -165l-24 -74l85 43q62 -12 86 -12q10 0 23 1q-8 26 -8 51q0 80 60.5 136.5t147.5 56.5zM514 586q13 0 21.5 -8.5t8.5 -22.5t-8.5 -22t-21.5 -8q-15 0 -26 8.5t-11 22t11 22
t26 8.5zM343 525q-15 0 -26 8.5t-11 21.5t11 22t26 9q13 0 21.5 -8.5t8.5 -22.5t-8.5 -22t-21.5 -8zM868 329q0 73 -62 125t-145 52q-87 0 -147.5 -51.5t-60.5 -125.5t60.5 -125.5t147.5 -51.5q24 0 73 12l67 -37l-18 61q85 64 85 141zM593 360q-9 0 -16.5 7.5t-7.5 16.5
t7.5 16.5t16.5 7.5q13 0 22 -7t9 -17t-9 -17t-22 -7zM728 360q-10 0 -17.5 7.5t-7.5 16.5t8 16.5t17 7.5q13 0 21.5 -7t8.5 -17t-8.5 -17t-21.5 -7z" />
    <glyph glyph-name="record" unicode="&#xe612;" 
d="M858 386q0 -94 -46.5 -173.5t-126 -126t-173.5 -46.5v0q-94 0 -173.5 46.5t-126 126t-46.5 173.5v0q0 94 46.5 173.5t126 126t173.5 46.5v0q94 0 173.5 -46.5t126 -126t46.5 -173.5v0z" />
    <glyph glyph-name="category" unicode="&#xe608;" 
d="M416 734h-192q-27 0 -46.5 -19t-19.5 -47v-187q0 -27 19.5 -46.5t46.5 -19.5h192q27 0 46.5 19.5t19.5 46.5v187q0 28 -19.5 47t-46.5 19zM434 481q0 -7 -5 -12.5t-13 -5.5h-192q-7 0 -12 5.5t-5 12.5v187q0 8 5 13t12 5h192q8 0 13 -5t5 -13v-187zM801 734h-192
q-27 0 -46.5 -19t-19.5 -47v-187q0 -27 19.5 -46.5t46.5 -19.5h192q27 0 46.5 19.5t19.5 46.5v187q0 28 -19.5 47t-46.5 19zM819 481q0 -7 -5.5 -12.5t-12.5 -5.5h-192q-7 0 -12.5 5.5t-5.5 12.5v187q0 8 5.5 13t12.5 5h192q7 0 12.5 -5t5.5 -13v-187zM801 354h-192
q-27 0 -46.5 -19.5t-19.5 -46.5v-187q0 -28 19.5 -47t46.5 -19h192q27 0 46.5 19t19.5 47v187q0 27 -19.5 46.5t-46.5 19.5zM819 101q0 -8 -5.5 -13t-12.5 -5h-192q-7 0 -12.5 5t-5.5 13v187q0 7 5.5 12.5t12.5 5.5h192q7 0 12.5 -5.5t5.5 -12.5v-187zM416 354h-192
q-27 0 -46.5 -19.5t-19.5 -46.5v-187q0 -28 19.5 -47t46.5 -19h192q27 0 46.5 19t19.5 47v187q0 27 -19.5 46.5t-46.5 19.5zM434 101q0 -8 -5 -13t-13 -5h-192q-7 0 -12 5t-5 13v187q0 7 5 12.5t12 5.5h192q8 0 13 -5.5t5 -12.5v-187z" />
    <glyph glyph-name="home" unicode="&#xe609;" 
d="M722 29h-135q-8 0 -14 5.5t-6 13.5v260q0 7 -5 12t-12 5h-74q-7 0 -12 -5t-5 -12v-260q0 -8 -6 -13.5t-14 -5.5h-139q-23 0 -39.5 16.5t-16.5 39.5v239q0 5 -4 9t-9 4h-36q-25 0 -34.5 23t7.5 41l317 327q11 12 27 12t27 -12l321 -324q18 -19 8 -43t-36 -24h-38
q-6 0 -10 -4t-4 -10v-236q0 -24 -17 -41t-41 -17zM639 77h70q9 0 16 7t7 16v261q0 10 7 17t17 7h45q3 0 4 2.5t-1 4.5l-280 283q-5 5 -11.5 5t-11.5 -5l-281 -290h48q10 0 17 -7t7 -17v-261q0 -9 7 -16t16 -7h72q10 0 16.5 7t6.5 16v205q0 29 20 48.5t48 19.5h70
q28 0 48 -19.5t20 -48.5v-205q0 -9 6.5 -16t16.5 -7z" />
    <glyph glyph-name="qq" unicode="&#xe613;" 
d="M206 321q-19 -46 -21.5 -84t12.5 -46q11 -6 26.5 5.5t31.5 35.5q13 -51 58 -90q-51 -19 -51 -51q0 -26 36 -44.5t86 -18.5q46 0 80 15t41 38h7.5h6.5q7 -23 41.5 -38t79.5 -15q50 0 86 18.5t36 44.5q0 32 -51 51q46 39 58 90q16 -24 31.5 -35.5t26.5 -5.5q16 8 13 46
t-22 84q-15 35 -34 60t-35 31v9q0 28 -14 50v3q0 12 -5 23q-4 97 -63 160.5t-155 63.5t-155 -63.5t-63 -160.5q-5 -11 -5 -23v-3q-14 -22 -14 -50v-9q-16 -6 -35 -31t-34 -60z" />
    <glyph glyph-name="guanbixianshi" unicode="&#xe614;" 
d="M962 384l-57 69q46 55 74 122q5 12 0 24.5t-17 17.5t-24 0t-18 -17q-50 -121 -159.5 -191t-248.5 -70t-249 70t-159 191q-5 13 -17.5 18t-24.5 0t-17 -17.5t0 -24.5q28 -70 78 -128l-53 -64q-9 -10 -7.5 -23t11.5 -22q9 -7 20 -7q15 0 24 11l50 60q52 -46 116 -77
l-30 -83q-5 -13 0.5 -25t18.5 -16q5 -2 11 -2q22 0 29 21l30 82q67 -23 137 -27v-96q0 -13 9.5 -22.5t22.5 -9.5t22.5 9.5t9.5 22.5v96q75 4 144 28l31 -83q7 -21 30 -21q5 0 10 2q13 4 18.5 16t0.5 25l-31 86q63 31 114 77l53 -63q9 -11 24 -11q12 0 20 7q11 9 12 22t-8 23
z" />
    <glyph glyph-name="more" unicode="&#xe60a;" 
d="M151 384q0 -38 26.5 -64.5t64.5 -26.5t64.5 26.5t26.5 64.5t-26.5 64.5t-64.5 26.5t-64.5 -26.5t-26.5 -64.5zM419 384q0 -38 27 -64.5t64.5 -26.5t64.5 26.5t27 64.5t-27 64.5t-64.5 26.5t-64.5 -26.5t-27 -64.5zM688 384v0q0 -38 26.5 -64.5t64.5 -26.5t64.5 26.5
t26.5 64.5v0q0 38 -26.5 64.5t-64.5 26.5t-64.5 -26.5t-26.5 -64.5z" />
    <glyph glyph-name="back" unicode="&#xe60b;" 
d="M308 411l-28 -27l337 -336q11 -12 27 -12t27 11.5t11 27.5t-11 27l-309 309v-54l309 309q11 11 11 27t-11 27.5t-27 11.5t-27 -12z" />
    <glyph glyph-name="message" unicode="&#xe60c;" 
d="M513 122q-32 0 -66 6l-153 -93v154q-61 43 -96 105.5t-35 133.5q0 83 47 153.5t127.5 111t175 40.5t175 -40.5t127.5 -111t47 -153.5t-47 -153.5t-127.5 -111.5t-174.5 -41v0zM513 690q-127 0 -216.5 -77t-89.5 -185q0 -66 35 -122.5t95 -92.5l-1 -101l103 62
q37 -8 74 -8q126 0 215.5 76.5t89.5 185t-89.5 185.5t-215.5 77v0zM687 384q-18 0 -30.5 13t-12.5 31t12.5 30.5t30.5 12.5t31 -12.5t13 -30.5t-13 -31t-31 -13v0zM513 384q-19 0 -31.5 13t-12.5 31t12.5 30.5t31 12.5t31 -12.5t12.5 -30.5t-12.5 -31t-30.5 -13v0zM338 384
q-18 0 -31 13t-13 31t13 30.5t31 12.5t31 -12.5t13 -30.5t-13 -31t-31 -13v0z" />
    <glyph glyph-name="search" unicode="&#xe60d;" 
d="M841 101l-8 8l-164 175q61 79 61 173q0 115 -81.5 196.5t-196.5 81.5q-117 -2 -198 -83.5t-81 -195t82 -196t197 -82.5q87 0 159 51l167 -178q0 -3 2 -3q11 -10 29 -10t30.5 12t12.5 30l-11 21v0v0v0zM449 239q-90 0 -153.5 64t-63.5 153.5t63.5 153.5t153 64t153.5 -64
t64 -153.5t-64 -153.5t-153 -64v0z" />
    <glyph glyph-name="person" unicode="&#xe60e;" 
d="M639 341q40 32 63.5 79t23.5 100q0 94 -66 160t-159.5 66t-160 -66t-66.5 -160q0 -54 23.5 -100.5t64.5 -78.5q-193 -61 -193 -306h63q-1 6 -0.5 15t5.5 36t14 51t28.5 54t46.5 51.5t71.5 36.5t99.5 15h3h4h3q59 -1 106.5 -15.5t76.5 -37.5t50 -50.5t30.5 -55t14.5 -50
t6 -36.5v-14h65q1 1 1 14t-2.5 35.5t-8.5 50t-22 58t-38 58t-60.5 52t-86.5 38.5v0zM500 360q-66 0 -113 47t-47 113.5t47 113.5t113.5 47t113.5 -47t47 -113.5t-47 -113.5t-114 -47v0z" />
  </font>
</defs>
</svg>
